#TITLE:Don't be afraid myself;
#SUBTITLE:~Ganos original~;
#ARTIST:platoniX;
#TITLETRANSLIT:;
#SUBTITLETRANSLIT:;
#ARTISTTRANSLIT:;
#CREDIT:;
#BANNER:Don't be afraid myself.png;
#BACKGROUND:Don't be afraid myself-BG.png;
#LYRICSPATH:;
#CDTITLE:GanosCD.png;
#MUSIC:Don't be afraid myself.mp3;
#OFFSET:-0.380;
#SAMPLESTART:12.593;
#SAMPLELENGTH:12.000;
#SELECTABLE:YES;
#BPMS:0.000=82.500,10.000=165.000,58.000=82.500,62.000=165.000,118.000=82.500,126.000=165.000,158.000=82.500,174.000=165.000,198.000=82.500,210.000=165.000;
#STOPS:;
#BGCHANGES:;
// cache tags:
#FIRSTBEAT:1.750;
#LASTBEAT:275.000;
#SONGFILENAME:Songs/Chilean Keyboard Megapack 3/(Ganos) Don't be afraid myself/Don't be afraid myself.sm;
#HASMUSIC:1;
#HASBANNER:1;
#MUSICLENGTH:123.201;
// end cache tags

//---------------dance-single - ----------------
#NOTES:
     dance-single:
     :
     Challenge:
     12:
     1.000,1.000,1.000,1.000,1.000,735.000,177.000,252.000,0.000,8.000:
0000
0000
0000
0000
0000
0000
0000
0000
0000
0000
0000
0000
0000
0000
0000
0000
0000
0000
0000
0000
0000
0000
0000
0000
0000
0000
0000
0000
0010
0000
0100
0000
2002
3003
0000
0000
0000
0000
0000
0000
0000
0000
0000
0000
0010
0000
0000
0000
0000
0000
0000
0000
0000
0000
0000
0000
0001
0000
0000
0000
0000
0000
0000
0000
,
2200
3300
0000
0000
0000
0000
0000
0000
0000
0000
0000
0000
0100
0000
0000
0000
1000
0000
0000
0000
0000
0000
0000
0000
0010
0000
0000
0000
0000
0000
0000
0000
2002
3003
0000
0000
0000
0000
0000
0000
0000
0000
0000
0000
0100
0000
0000
0000
0010
0000
0000
0000
0000
0000
0000
0000
0000
0000
0000
0000
1000
0000
0001
0000
,
0220
0330
0000
0000
0000
0000
0000
0000
0000
0000
0000
0000
0000
0000
0000
0000
0220
0330
0000
0000
0000
0000
0000
0000
2200
3300
0000
0000
0010
0000
0100
0000
0022
0033
0000
0000
0000
0000
0000
0000
1000
0000
0000
0000
0000
0000
0000
0000
0001
0000
0000
0000
0000
0000
0000
0000
0100
0000
0000
0000
0000
0000
0000
0000
,
0001
0000
0000
0000
0000
0000
0000
0000
0010
0000
0000
0000
0000
0000
0000
0000
0100
0000
0000
0000
0000
0000
0000
0000
1000
0000
0000
0000
0001
0000
0000
0000
0220
0330
0000
0000
0000
0000
0000
0000
1000
0000
0000
0000
0000
0000
0000
0000
0001
0000
0000
0000
0000
0000
0000
0000
0100
0000
0000
0000
0000
0000
0000
0000
,
0001
0000
0000
0000
0000
0000
0000
0000
0010
0000
0000
0000
0000
0000
0000
0000
0001
0000
0000
0000
0010
0000
0000
0000
0100
0000
0000
0000
1000
0000
0000
0000
0220
0330
0000
0000
1000
0000
0000
0000
0010
0000
0000
0000
0001
0000
0000
0000
0100
0000
0000
0000
0010
0000
0000
0000
1000
0000
0000
0000
0100
0000
0000
0000
,
0010
0000
0000
0000
0001
0000
0000
0000
1000
0000
0000
0000
0001
0000
0000
0000
0100
0000
0000
0000
0010
0000
0000
0000
1000
0000
0000
0000
0001
0000
0000
0000
0220
0330
0000
0000
0000
0000
0000
0000
0022
0033
0000
0000
0100
0000
0000
0000
0022
0033
0000
0000
0000
0000
0000
0000
2200
3300
0000
0000
0010
0000
0000
0000
,
2200
3300
0000
0000
0000
0000
0000
0000
2020
3030
0000
0000
0000
0000
0000
0000
0022
0033
0000
0000
1000
0000
0000
0000
0001
0000
0000
0000
1000
0000
0000
0000
0022
0033
0000
0000
0000
0000
0000
0000
0000
0000
0000
0000
1000
0000
0000
0000
0000
0000
0000
0000
0000
0000
0000
0000
0001
0000
0000
0000
0000
0000
0000
0000
,
0000
0100
0000
0000
0010
1000
0010
0100
0001
0000
0000
0100
0000
0000
0010
0000
,
0000
1000
0000
0000
0001
0100
0010
1000
0010
0000
0000
0100
0000
0000
0010
0000
,
1000
0100
0010
0000
0010
0100
1000
0001
0100
0000
0000
1000
0000
0000
0001
0000
,
0000
0000
0000
0000
0100
0000
0000
0000
0000
0000
0000
0000
0000
0000
0000
0000
0010
0000
0000
0000
0000
0000
0000
0000
0100
0000
0000
0000
0000
0000
0000
0000
2002
3003
0000
0000
0010
0000
0000
0000
0000
0000
0000
0000
0010
0000
0000
0000
1000
0000
0000
0000
0000
0000
0000
0000
1000
0000
0000
0000
0001
0000
0000
0000
,
0000
0001
0010
0000
0010
0001
0010
0000
1000
0001
0000
0001
0100
0000
0100
0010
,
0000
0010
1000
0000
0010
1000
0010
0000
0100
0010
0000
1000
0100
0010
0001
0000
,
1000
0000
0100
0000
0010
0000
0010
0000
0001
1000
0000
0001
0100
0010
0000
1000
,
0000
0000
0100
0000
0000
0000
0010
0000
0001
0000
1000
0000
0001
0000
0100
0000
0010
0000
0010
0000
0000
0000
0000
0000
0000
0000
0100
0000
0100
0100
0000
0000
,
1001
0000
0000
0000
1000
0000
0000
0000
0000
0000
0000
0000
0000
0000
0000
0000
0000
0000
0000
0000
0000
0000
0000
0000
1000
0001
1000
0001
1000
0001
1000
0001
1000
0000
0000
0000
0100
0000
0000
0000
0010
0000
0000
0000
0001
0000
0000
0000
1010
0000
0000
0000
0000
0000
0000
0000
0100
0000
0000
0000
0000
0000
0000
0000
,
0011
0100
1000
0000
0110
0000
0001
0000
0110
0001
1000
0000
0011
0000
0100
0000
,
1010
0001
0100
0000
0011
0000
0110
1000
0011
0100
1000
0100
0011
0000
0100
0000
,
1010
0100
0001
0000
1100
0000
0001
0000
0110
0001
1000
0000
0101
0000
0010
0000
,
1100
0000
0101
0000
0110
0000
0010
0100
1001
0100
0010
1000
0011
0000
0100
0000
,
1010
0001
0100
0000
0011
0000
0110
0000
1100
0010
0001
0000
0110
0000
1000
0000
,
0011
0100
1000
0000
0110
0001
1000
0000
0110
1000
0001
0010
1100
0010
0001
0000
,
0110
1000
0001
0000
1100
0000
0100
0000
0011
1000
0100
0010
0001
0010
0100
1000
,
0001
0000
0000
0000
0100
0000
0000
0000
0010
0000
0000
0000
0100
0000
0000
0000
1000
0000
0000
0000
0100
0000
0000
0000
0010
0000
0000
0000
0001
0000
0000
0000
2020
3000
0000
0000
0000
0000
0000
0000
0030
0000
0000
0000
0000
0000
0000
0000
0200
0000
0000
0000
0000
0000
0000
0000
2320
3000
0000
0000
0000
0000
0000
0000
,
0030
0000
0000
0000
0000
0000
0000
0000
0200
0000
0000
0000
0000
0000
0000
0000
2300
0000
0000
0000
0000
0000
0000
0000
3022
0003
0000
0000
0000
0000
0000
0000
0030
0000
0000
0000
0000
0000
0000
0000
0020
0000
0000
0000
0000
0000
0000
0000
0230
0000
0000
0000
0000
0000
0000
0000
0000
0000
0000
0000
0000
0000
0000
0000
,
0000
0000
0000
0000
0000
0000
0000
0000
0300
0000
0000
0000
0000
0000
0000
0000
1200
0000
0000
0000
0300
0000
0000
0000
0021
0000
0000
0000
0030
0000
0000
0000
2200
3000
0000
0000
0000
0000
0000
0000
0000
0000
0000
0000
0300
0000
0000
0000
2000
0000
0000
0000
3000
0000
0000
0000
0022
0003
0000
0000
0000
0000
0000
0000
,
0030
0000
0000
0000
0000
0000
0000
0000
0002
0000
0000
0000
0003
0000
0000
0000
2000
0000
0000
0000
3000
0000
0000
0000
0220
0300
0000
0000
0000
0000
0000
0000
0030
0000
0000
0000
0000
0000
0000
0000
2000
0000
0000
0000
0100
0000
0010
0000
3002
0000
0000
0000
0000
0000
0000
0000
0000
0000
0000
0000
0000
0000
0000
0000
,
0003
0000
0000
0000
0000
0000
0000
0000
0000
0000
0000
0000
0000
0000
0000
0000
0021
0000
0000
0000
0130
0000
0000
0000
2000
0000
0000
0000
3100
0000
0000
0000
0022
0003
0000
0000
0030
0000
0000
0000
0000
0000
0000
0000
0000
0000
0000
0000
0200
0000
0000
0000
0300
0000
0000
0000
2020
3000
0000
0000
0030
0000
0000
0000
,
0000
0000
0000
0000
0000
0000
0000
0000
0200
0000
0000
0000
0300
0000
0000
0000
0010
0000
0000
0000
0000
0000
0000
0000
2002
3000
0000
0000
0003
0000
0000
0000
0000
0000
0000
0000
0000
0000
0000
0000
1200
0000
0000
0000
0300
0000
0000
0000
0012
0000
0000
0000
0000
0000
0000
0000
0000
0000
0000
0000
0003
0000
0000
0000
,
1100
0000
0000
0000
0000
0000
0000
0000
0000
0000
0000
0000
0000
0000
0000
0000
0000
0000
0000
0000
0000
0000
0000
0000
0000
0000
0000
0000
0000
0000
0000
0000
0000
0000
0000
0000
0000
0000
0000
0000
0000
0000
0000
0000
0000
0000
0000
0000
0120
0000
0000
0000
0000
0000
0000
0000
0000
0000
0000
0000
0030
0000
0000
0000
0000
0000
0000
0000
0000
0000
0000
0000
1200
0000
0000
0000
0000
0000
0000
0000
0000
0000
0000
0000
0300
0000
0000
0000
0000
0000
0000
0000
0000
0000
0000
0000
0012
0000
0000
0000
0000
0000
0000
0000
0000
0000
0000
0000
0000
0000
0000
0000
0000
0000
0000
0000
0000
0000
0000
0000
0000
0000
0000
0000
0000
0000
0000
0000
0000
0000
0000
0000
0000
0000
0000
0000
0000
0000
0000
0000
0000
0000
0000
0000
2103
0000
0000
0000
0000
0000
3000
0000
0000
0000
0000
0000
0000
0000
0000
0000
0000
0000
0120
0000
0000
0000
0000
0000
0030
0000
0000
0000
0000
0000
0000
0000
1002
0000
0000
0000
0003
0000
0000
0000
0000
0000
0000
0000
0000
0000
0000
0000
,
0210
0300
1010
0000
0011
0000
0120
0030
2100
3000
0110
0000
0011
0000
1100
0000
0001
0010
0100
1000
0001
0100
0010
1000
0200
0300
0000
0200
0300
0000
0200
0300
,
0000
0000
0000
0000
0000
0000
0200
0300
2000
3000
0200
0300
0020
0030
0002
0003
2020
3030
0000
0000
0000
0000
0010
0000
1001
0000
0000
0000
0100
0000
0000
0000
,
1010
0001
0100
0000
0011
0000
1000
0000
0101
0000
0000
1000
0110
0000
0001
0000
,
1100
0010
0001
0000
0110
0000
1000
0000
0101
0000
0000
1000
0011
0000
1000
0000
,
0110
0001
1000
0000
0101
1000
0010
1000
0011
0000
0000
0001
1100
0000
0001
0000
,
0110
0000
0000
0000
0001
0000
0000
0000
0100
0000
0000
0000
0000
0000
0000
0000
1010
0000
0000
0000
0000
0000
0000
0000
0001
0000
0000
0000
0000
0000
0000
0000
0022
0033
0000
0000
0000
0000
0000
0000
0000
0000
0000
0000
1000
0000
0000
0000
0110
0000
0000
0000
0000
0000
0000
0000
0010
0000
0000
0000
0000
0000
0000
0000
,
0101
0010
1000
0000
0011
0000
0100
0000
0011
1000
0100
1000
0011
0000
0100
0000
,
1010
0000
0001
0000
1100
0000
0001
0000
0110
1000
0001
1000
0110
0000
0001
0000
,
1100
0000
0010
0000
0101
0000
0010
0000
1000
0100
0010
0001
0100
0010
1000
0001
,
0100
0000
0000
0000
0010
0000
0000
0000
1000
0000
0000
0000
0100
0000
0000
0000
0010
0000
0000
0000
0100
0000
0000
0000
1000
0000
0000
0000
0001
0000
0000
0000
2020
3030
0000
0000
0000
0000
0000
0000
0000
0000
0000
0000
0000
0000
0000
0000
0000
0000
0000
0000
0020
0030
0000
0000
0200
0300
0000
0000
0002
0003
0000
0000
,
2000
3000
0000
0000
0200
0300
0000
0000
0020
0030
0000
0000
0200
0300
0000
0000
2000
3000
0000
0000
0002
0003
0000
0000
0200
0300
0000
0000
0020
0030
0000
0000
1100
0000
0000
0000
0020
0030
0000
0000
0002
0003
0000
0000
0000
0000
0000
0000
0000
0000
0000
0000
2000
3000
0000
0000
0200
0300
0000
0000
0020
0030
0000
0000
,
0002
0003
0000
0000
2000
3000
0000
0000
0002
0003
0000
0000
0200
0300
0000
0000
0020
0030
0000
0000
0200
0300
0000
0000
0002
0003
0000
0000
0200
0300
0000
0000
1010
0000
0000
0000
0200
0300
0000
0000
0020
0030
0000
0000
0002
0003
0000
0000
2000
3000
0000
0000
0002
0003
0000
0000
0200
0300
0000
0000
0020
0030
0000
0000
,
2000
3000
0000
0000
0000
0000
0000
0000
0000
0000
0000
0000
0000
0000
0000
0000
0200
0300
0000
0000
0000
0000
0000
0000
0020
0030
0000
0000
0002
0003
0000
0000
0000
0000
0000
0000
2000
3000
0000
0000
0200
0300
0000
0000
0020
0030
0000
0000
0000
0000
0000
0000
2000
3000
0000
0000
0002
0003
0000
0000
0020
0030
0000
0000
,
0200
0300
0000
0000
0000
0000
0000
0000
0000
0000
0000
0000
0000
0000
0000
0000
0020
0030
0000
0000
0000
0000
0000
0000
0200
0300
0000
0000
0000
0000
0000
0000
2002
3003
0000
0000
0100
0000
0000
0000
0010
0000
0000
0000
0001
0000
0000
0000
1000
0000
0000
0000
0001
0000
0000
0000
0100
0000
0000
0000
0010
0000
0000
0000
,
1000
0001
0100
0010
1000
0100
0010
0001
0010
0100
1000
0100
0010
0001
1000
0001
,
0100
0010
1000
0100
0010
0100
1000
0100
0010
0001
0010
0100
1000
0001
0100
0010
,
1000
0001
0100
0010
1000
0010
0100
0001
0010
0100
1000
0100
0010
0001
0100
0001
,
1000
0000
0000
0000
0010
0000
0000
0000
0100
0000
0000
0000
0010
0000
0000
0000
1000
0000
0000
0000
0001
0000
0000
0000
0100
0000
0000
0000
0010
0000
0000
0000
2002
3003
0000
0000
0100
0000
0000
0000
0010
0000
0000
0000
0100
0000
0000
0000
1000
0000
0000
0000
0100
0000
0000
0000
2020
3030
0000
0000
0001
0000
0000
0000
,
0010
0000
0000
0000
0100
0000
0000
0000
0010
0000
0000
0000
0001
0000
0000
0000
0010
0000
0000
0000
0100
0000
0000
0000
0010
0000
0000
0000
0001
0000
0000
0000
2020
3030
0000
0000
0001
0000
0000
0000
0100
0000
0000
0000
0010
0000
0000
0000
1000
0000
0000
0000
0100
0000
0000
0000
0010
0000
0000
0000
0001
0000
0000
0000
,
0010
0000
0100
0000
1000
0000
0100
0000
0010
0000
0100
0000
1000
0000
0001
0000
1000
0100
0010
0001
0010
0100
1000
0100
0010
0001
0010
0100
1000
0100
0010
0001
,
2000
0000
3000
0000
0000
0000
0000
0000
0000
0000
0000
0000
2000
0000
0000
0000
3002
0000
0000
0000
0203
0000
0000
0000
0320
0000
0000
0000
2030
0000
0000
0000
3202
0003
0000
0000
0320
0030
0000
0000
0002
0003
0000
0000
2000
0000
0000
0000
3002
0000
0000
0000
0203
0000
0000
0000
0320
0000
0000
0000
2030
0000
0000
0000
,
3022
0003
0000
0000
0230
0300
0000
0000
0020
0030
0000
0000
0002
0000
0000
0000
2003
0000
0000
0000
3200
0000
0000
0000
0320
0000
0000
0000
0032
0000
0000
0000
0223
0300
0000
0000
2030
3000
0000
0000
0002
0000
0000
0000
0203
0000
0000
0000
0320
0030
0000
0000
0200
0000
0000
0000
0302
0003
0000
0000
2000
0000
0000
0000
,
3202
0303
0000
0000
0020
0000
0000
0000
0230
0300
0000
0000
2000
0000
0000
0000
3200
0300
0000
0000
0002
0000
0000
0000
2003
3000
0000
0000
0200
0000
0000
0000
2320
3000
0000
0000
0030
0000
0000
0000
2000
3000
0000
0000
0000
0000
0000
0000
0021
0030
0000
0000
0000
0000
0000
0000
0200
0000
0000
0000
0300
0000
0000
0000
,
2020
3000
0000
0000
0030
0000
0000
0000
0200
0000
0000
0000
0300
0000
0000
0000
2002
3000
0000
0000
0003
0000
0000
0000
0200
0000
0000
0000
0300
0000
0000
0000
0022
0003
0000
0000
0030
0000
0000
0000
2000
3000
0000
0000
0000
0000
0000
0000
0201
0300
0000
0000
0000
0000
0000
0000
0020
0000
0000
0000
0030
0000
0000
0000
,
2100
3000
0000
0000
0000
0000
0000
0000
0020
0000
0000
0000
0030
0000
0000
0000
0102
0003
0000
0000
0000
0000
0000
0000
2000
0000
0000
0000
3000
0000
0000
0000
0210
0300
0000
0000
0000
0000
0000
0000
0002
0000
0000
0000
0003
0000
0000
0000
2200
0300
0000
0000
3000
0000
0000
0000
0002
0003
0000
0000
0000
0000
0000
0000
,
2010
3000
0000
0000
0000
0000
0000
0000
0200
0300
0000
0000
0000
0000
0000
0000
0002
0003
0000
0000
0000
0000
0000
0000
2000
3000
0000
0000
0000
0000
0000
0000
0010
0000
0000
0000
0010
0000
0000
0000
0010
0000
0000
0000
0010
0000
0000
0000
1000
0000
0000
0000
1000
0000
0000
0000
1000
0000
0000
0000
1000
0000
0000
0000
,
0001
0000
0000
0000
0001
0000
0000
0000
0001
0000
0000
0000
0001
0000
0000
0000
0100
0000
0000
0000
0100
0000
0000
0000
0100
0000
0000
0000
0100
0000
0000
0000
2002
3000
0000
0000
0003
0000
0000
0000
0000
0000
0000
0000
0100
0000
0000
0000
0011
0000
0000
0000
0000
0000
0000
0000
0200
0000
0000
0000
0300
0000
0000
0000
,
2010
3000
0200
0300
0021
0030
2000
3000
0210
0300
0000
0001
1010
0000
0002
0003
,
1200
0300
0020
0030
1002
0003
0200
0300
0021
0030
1000
0000
0201
0300
0020
0030
,
1100
0000
0002
0003
0110
0000
2000
3000
0101
0000
0020
0030
1001
0000
0020
0030
,
0101
0000
0000
0000
0000
0000
0000
0000
2000
0000
0000
0000
3000
0000
0000
0000
0101
0000
0000
0000
0000
0000
0000
0000
0020
0000
0000
0000
0030
0000
0000
0000
2002
3000
0000
0000
0003
0000
0000
0000
0000
0000
0000
0000
0010
0000
0000
0000
1001
0000
0000
0000
0000
0000
0000
0000
0100
0000
0000
0000
0000
0000
0000
0000
,
1010
0001
0100
0000
1010
0001
1000
0001
0110
0000
0000
0001
1010
0000
0100
0000
,
0011
0000
0000
0000
0100
0000
0000
0000
1000
0000
0000
0000
0000
0000
0000
0000
0110
0000
0000
0000
0001
0000
0000
0000
1000
0000
0000
0000
0001
0000
0000
0000
2200
3300
0000
0000
0000
0000
0000
0000
0000
0000
0000
0000
0100
0000
0000
0000
0011
0000
0000
0000
0000
0000
0000
0000
1000
0000
0000
0000
0000
0000
0000
0000
,
0110
0001
1000
0000
0110
0001
0100
0010
1001
0000
0000
0001
1100
0000
0010
0000
,
1100
0010
0001
0000
0110
0000
0001
0000
0011
1000
0101
1000
0011
1000
0101
1000
,
0011
1000
0101
1000
0011
1000
0101
1000
0011
1000
0101
1000
0011
1000
0101
1000
,
0022
0033
0000
0000
0000
0000
0000
0000
0000
0000
0000
0000
0022
0033
0000
0000
0000
0000
0000
0000
0000
0000
0000
0000
0022
0033
0000
0000
0000
0000
0000
0000
0000
0000
0000
0000
0000
0000
0000
0000
0000
0000
0000
0000
0000
0000
0000
0000
2002
0000
0000
0000
0000
0000
0000
0000
0000
0000
0000
0000
0000
0000
0000
0000
,
0000
0000
0000
0000
,
0000
0000
0000
3003
;
